» » Felix Cavaliere - Castles In The Air

Felix Cavaliere - Castles In The Air album flac

  • Performer: Felix Cavaliere
  • Title: Castles In The Air
  • Size FLAC ver: 1681 mb
  • Country: Europe
  • Date of release: 1979
  • Other formats: MOD MP2 WAV MP4 FLAC ADX XM
  • Genre: Rock / Funk / Pop
  • Rating: 4.6 of 5
Felix Cavaliere - Castles In The Air album flac

Tracklist

Good To Have Love Back 3:53
Only A Lonely Heart Sees 3:50
All Or Nothing 3:21
Castles In The Air 3:34
People Got To Be Free 3:44
Dancin' The Night Away 4:14
Love Is The First Day Of Spring 4:23
Outside Your Window 3:13
Don't Hold Back Your Love 4:09
You Turned Me Around 4:28

Versions

Category Artist Title (Format) Label Category Country Year
EPC 83817 Felix Cavaliere Castles In The Air ‎(LP, Album) Epic EPC 83817 Europe 1979
EPC 83817 Felix Cavaliere Castles In The Air ‎(LP, Album) Epic EPC 83817 UK 1979
ELPS 4044 Felix Cavaliere Castles In The Air ‎(LP, Album) Epic ELPS 4044 Australia 1979
JE 35990 Felix Cavaliere Castles In The Air ‎(LP, Album) Epic JE 35990 US 1979
JE 35990 Felix Cavaliere Castles In The Air ‎(LP, Album) Epic JE 35990 Canada 1979
NJE 35990, JE 35990 Felix Cavaliere Castles In The Air ‎(LP, Album, Promo) Epic NJE 35990, JE 35990 US 1979
25-3P-215 Felix Cavaliere Castles In The Air ‎(LP, Album, Promo) Epic 25-3P-215 Japan 1979
JE 35990 Felix Cavaliere Castles In The Air ‎(LP, Album, Promo) Epic JE 35990 US 1979
ESCA-7871 Felix Cavaliere Castles In The Air ‎(CD, Album, RE) Epic ESCA-7871 Japan 2001
MHCP 780 Felix Cavaliere Castles In The Air ‎(CD, Album, RE, Min) Epic MHCP 780 Japan 2005
S30855C Felix Cavaliere Castles In The Air ‎(CD, Album) Epic S30855C Japan 2011
SICP-4908 Felix Cavaliere Castles In The Air ‎(CD, Album, Ltd, RE, RM) Epic SICP-4908 Japan 2016
253P-215 Felix Cavaliere Castles In The Air ‎(LP, Album) Epic/Sony 253P-215 Japan Unknown




Complete your Felix Cavaliere collection. referencing Castles In The Air, CD, Album, RE, ESCA-7871. 17, Dynamic Range Meter . 1 log date: 2018-09-04 19:56:21. Analyzed: Felix Cavaliere, Castles In The Air -. DR Peak RMS Duration Track -DR14 -. 5 dB -1. 3 dB 3:51 01-Good To Have Love Back DR14 -. 3 dB -1. 5 dB 3:54 02-Only A Lonely Heart Breaks DR15 -. 8 dB -1. 8 dB 3:25 03-All Or Nothing DR13 -. 0 dB -1. 6 dB 3:25 04-Castles.

Felix Cavaliere's third solo album is a superb piece of soulful soft rock, the former Rascals singer ably supported by Luther Vandross, Randy Brecker, et a. with Cavaliere doubling as his own producer. The material - which includes a lean, stripped-down recut version of "People Got to Be Free" - is a great showcase for Cavaliere's range, while the arrangements and accompaniments make the pieces soar in his hands

Features Song Lyrics for Felix Cavaliere's Castles in the Air album. 1. Only a Lonely Heart Sees Lyrics. 2. People Got to Be Free Lyrics. Felix Cavaliere Lyrics provided by SongLyrics.

Artist: Felix Cavaliere Title: Castles In The Air Year Of Release: 1979/2005 Label: Epic Genre: Weastcoast, Soft Rock Quality: Flac (tracks,. Tracklist: 1. Good to Have Love Back 2. Only a Lonely Heart Sees 3. All or Nothing 4. Castles in the Air 5. People Got to Be Free 6. Dancin' the Night Away 7. Love Is the First Day of Spring 8. Outside Your Window 9. Don't Hold Back Your Love 10. You Turned Me Around

Listen to Felix Cavaliere Radio featuring songs from Castles in the Air free online. Слушать бесплатное интернет-радио, спорт, музыку, новости, разговорное и подкасты. События в прямом эфире, трансляции игр NFL, MLB, NBA, NHL, университетских команд и матчи Премьер-лиги. Castles in the Air. Felix Cavaliere. Станции, на которых звучит Felix Cavaliere.

Retrieved 2014-06-25. "Felix Cavaliere THE RASCALS dumps on THE NEW RASCALS with Gene Cornish and Dino Danelli". Retrieved 2014-06-25. Felix Cavaliere is the first solo album by Felix Cavaliere, former member, primary songwriter and one of the two lead singers of The Rascals (formerly the Young Rascals). It was produced by Todd Rundgren. Freedom Suite (The Rascals album). Written by group members Felix Cavaliere and Eddie Brigati and with a lead vocal from Cavaliere, it is a slow, relaxed groove, based on Cavaliere's newfound interest in Afro-Cuban music. Instrumentation included a conga, a Cuban-influenced bass guitar line from session musician Chuck Rainey, and a harmonica part, performed first for the single version by New York session musician Michael Weinstein, and later for the album version by Gene Cornish.

1. ~ Felix Cavaliere. and I am not at all disappointed with it! Tracks 1. Dizzy miss Lizzy (04:11) - by Splash 2. Roll away (04:08)- Felix Cavaliere 3. Born.

Musicians on the Felix Cavaliere/Destiny album: Felix Cavaliere, Kevin Ellman, Antonio Jiminez Arana, Pablo Rosario, Todd Rundgren, John Hall, Elliot Randall, Hank Di Vito, Gualberto Garcia Perez, John Siegler, Marvin Bronson, Barrie Rogers, Al Rubin, Larry Spencer, Randy Brecker, Jack Jeffers, Paul Fleisher, Cissy Huston, Judy Clay, Deidre Tuck, Renelle Stafford, Kenneth Bichel, Roger Powell, Julien Barber, Selwart Clarke, Al Brown, . Tracks: Good To Have Love Back, Only A Lonely Heart Sees, All Or Nothing, Castles In The Air, People Got To Be Free, Dancin´The Night Away, Love Is The First Day Of Spring, Outside Your Window, Don´t Hold Back Your Love & You Turned Me Around. Musicians on the Castles In The Air album: Felix Cavaliere and others.

play) (pause) (download) (fb) (vk) (tw).

Comments (2)

Kulabandis
foobar2000 1.3.17 / Dynamic Range Meter 1.1.1log date: 2018-09-04 19:56:21--------------------------------------------------------------------------------Analyzed: Felix Cavaliere / Castles In The Air [JP 2001 CD]--------------------------------------------------------------------------------DR Peak RMS Duration Track--------------------------------------------------------------------------------DR14 -0.75 dB -17.23 dB 3:51 01-Good To Have Love BackDR14 -2.63 dB -19.15 dB 3:54 02-Only A Lonely Heart BreaksDR15 -0.68 dB -18.08 dB 3:25 03-All Or NothingDR13 -1.50 dB -18.16 dB 3:25 04-Castles In The AirDR13 -1.63 dB -16.73 dB 3:59 05-People Got To Be FreeDR14 -3.08 dB -19.33 dB 4:18 06-Dancin' The Night AwayDR14 -2.91 dB -19.39 dB 4:28 07-Love Is The First Day Of SpringDR14 -2.83 dB -19.02 dB 3:18 08-Outside You WindowDR14 -2.23 dB -19.53 dB 4:14 09-Don't Hold Back Your LoveDR14 -1.93 dB -18.92 dB 4:42 10-You Turned Me Around--------------------------------------------------------------------------------Number of tracks: 10Official DR value: DR14Samplerate: 44100 HzChannels: 2Bits per sample: 16Bitrate: 892 kbpsCodec: ALAC================================================================================
SadLendy
Strong 1979 showing from Felix Cavalliere, Cengiz Yaltkaya and an ace New York crew, deserving of more credit than it's received. The 2011 CD release in Japan shows they get it, as they often do.

Related to Felix Cavaliere - Castles In The Air: