» » Hans Gustafsson - Carpe Diem

Hans Gustafsson - Carpe Diem album flac

  • Performer: Hans Gustafsson
  • Title: Carpe Diem
  • Size FLAC ver: 1932 mb
  • Country: Sweden
  • Date of release: 2001
  • Style: New Age
  • Other formats: AAC AHX WMA DTS MIDI DMF ADX
  • Genre: Electronic
  • Rating: 4.6 of 5
Hans Gustafsson - Carpe Diem album flac

Tracklist

1 Elf Dance 8:23
2 The Water Weaver 6:49
3 Glitter 5:30
4 Soft Dunes 8:15
5 Winter Pictures 5:53
6 Morning Gift 7:16
7 Wind Chimes 5:18
8 Dreamy Landscapes 5:40
9 The Cloud's Way 5:45
10 Carpe Diem 4:46

Companies, etc.

  • Copyright (c) – Theta Förlag
  • Phonographic Copyright (p) – Theta Förlag

Credits

  • Mastered By [Mastering] – Peter In de Betou

Notes

© & ℗ Theta

Barcode and Other Identifiers

  • Barcode (Text): 7 330521 010459
  • Barcode: 7330521010459
  • Rights Society: BIEM/n©b

Other versions

Category Artist Title (Format) Label Category Country Year
JBCD 045 Hans Gustafsson Carpe Diem ‎(CD, Album) Theta Förlag JBCD 045 Sweden 2001


Hans Gustafsson - Carpe Diem Released 2016-11-28 on Wellness Music Listen/download this album on your preferred music service: Google Play.

Наслаждайся моментом, никогда не верь будущему! Цените моменты вместе с Amorem · Для чакр · На удачу · Тотемы · Авторские украшения

Hans Gustafsson ‎– Carpe Diem. Label: Theta Förlag ‎– JBCD 045. Format: CD, Album. Composed By, Arranged By – Hans Gustafsson. Mastered By – Peter In de Betou.

Album · 2001 · 10 Songs. 10 Songs, 1 Hour 3 Minutes. Released: Jan 1, 2001. 2001 Wellness Music. More By Hans Gustafsson. See All. Spring of Love.

Hans Gustafsson - Carpe Diem Жанр: New Age Носитель: CD Страна-производитель диска: Sweden Год издания: 2001 Издатель (лейбл): Theta Номер по каталогу: JBCD 045 Аудиокодек: FLAC . lac) Тип рипа: tracks+. AUDIO TITLE "Drцmska landskap" PERFORMER "Hans Gustafsson" FLAGS DCP INDEX 00 05:12:02 FILE "08 Drцmska landskap. wav" WAVE INDEX 01 00:00:00 TRACK 09 AUDIO TITLE "Molngеng" PERFORMER "Hans Gustafsson" FLAGS DCP INDEX 00 05:36:08 FILE "09 Molngеng. wav" WAVE INDEX 01 00:00:00 TRACK 10 AUDIO TITLE "Carpe Diem" PERFORMER "Hans Gustafsson" FLAGS DCP INDEX 00. 05:39:11 FILE "10 Carpe Diem. wav" WAVE INDEX 01 00:00:00.

Molngang 10. Carpe Diem TURBOBIT . Dromska landskap 09. Molngang 10. Carpe Diem. Jeremy Udden - Three In Paris (2019). Griffin House - Rising Star (2019). Leon Russell - Leon Russell (1970).

Dromska landskap 09.

Björn Melander, Hans Gustafsson. Hans Gustafsson, Björn Melander - The Water Weaver 06:48. Hans Gustafsson, Björn Melander - Glitter 05:30. Hans Gustafsson, Björn Melander - Soft Dunes 08:14. Hans Gustafsson, Björn Melander - Winter Pictures 05:53. Hans Gustafsson, Björn Melander - Morning Gift 07:16. Hans Gustafsson, Björn Melander - Wind Chimes 05:17. Hans Gustafsson, Björn Melander - Dreamy Landscapes 05:39. Hans Gustafsson, Björn Melander - The Cloud's Way 05:44. Hans Gustafsson, Björn Melander - Carpe Diem 04:45. Spring of Love - Hans Gustafsson.

Hans Gustafsson скачать mp3 в хорошем качестве, либо слушайте песню Hans Gustafsson - Bringer of Love, Hans Gustafsson - Spring of Love, Hans Gustafsson - Tranquil Blue, Hans Gustafsson - In the Moment, Hans Gustafsson - Wind Tones, а также рингтоны на звонок и все новые треки. Hans Gustafsson – Carpe Diem. Hans Gustafsson – lvdans. Hans Gustafsson – G tfulla moln (Curious Cloud). Anguish, MC D lek, Mike Mare, Mats Gustafsson, Andreas Werliin, Hans Joachim Irmler – Vibrations.

Прослушать Скачать 14:57. Прослушать Скачать 05:41. Прослушать Скачать 05:09. Прослушать Скачать 04:20. Прослушать Скачать 07:22. Прослушать Скачать 05:26. Прослушать Скачать 07:46. Прослушать Скачать 04:46. Прослушать Скачать 04:52. To the Sea. Прослушать Скачать 04:45.

Hans Gustafsson is a master at translating nature's diverse pitches to music. Enjoy the delicate notes of piano, guitar and harp and let the gentle rhythms give your day a pleasant pulse. Feel how the streamed music brings both tranquility and inspiration. eBooks & eLearning.


Related to Hans Gustafsson - Carpe Diem: