» » Haino Keiji / Yoshida Tatsuya - Uhrfasudhasdd

Haino Keiji / Yoshida Tatsuya - Uhrfasudhasdd album flac

  • Performer: Haino Keiji
  • Title: Uhrfasudhasdd
  • Size FLAC ver: 1921 mb
  • Date of release: 2008
  • Style: Experimental
  • Other formats: VQF AUD DMF DXD ASF AAC VOC
  • Genre: Rock
  • Rating: 4.1 of 5
Haino Keiji / Yoshida Tatsuya - Uhrfasudhasdd album flac

Tracklist

1 Ryufoispjekkossd 5:41
2 Dhoidvophkjiff 2:46
3 Ruhndfhiooak 3:22
4 Gheuebhessip 2:52
5 Fsjoppofgu 2:22
6 Utygghjgpoidpswb 2:06
7 Lokskooidgiif 3:42
8 Cchjdisoiugpodf 3:49
9 Ddjbifpgorkh 1:56
10 Eeyddllvioss 2:10
11 Oodiffipoawhull 2:43
12 Zhuddiposddhk 4:19
13 Ruhfjidfpokf 1:55
14 Thuguigodssphiff 2:34
15 Fiuijkdfgpokwom 3:24
16 Mkdoiajadih 4:35

Companies, etc.

  • Copyright (c) – Tzadik
  • Phonographic Copyright (p) – Tzadik
  • Recorded At – Magaibutsu Studio
  • Mixed At – Magaibutsu Studio

Credits

  • Design – Heung-Heung Chin
  • Drums, Keyboards, Bass, Vocals – Yoshida Tatsuya*
  • Electric Guitar, Acoustic Guitar, Flute, Vocals – Haino Keiji*
  • Executive-Producer – John Zorn
  • Illustration [Cover Drawing] – Haino Keiji*
  • Mastered By – Scott Hull
  • Music By – Haino*, Yoshida*
  • Music By [All Music By] – Haino*, Tatsuya Yoshida (tracks: Yoshida)
  • Photography By – Scott Irvine
  • Producer [Associate] – Kazunori Sugiyama
  • Producer, Recorded By, Edited By, Mixed By – Yoshida Tatsuya*

Notes

Recorded, edited and mixed September to December 2007 at Studio Magaibutsu, Tokyo.

A project of Hips Road.
©℗2008 Tzadik.

Barcode and Other Identifiers

  • Barcode (on obi): 7 02397-7265-2 4
  • Matrix / Runout: TZACD7265 1N 01
  • Mastering SID Code: IFPI L250




Album: Uhrfasudhasdd Label: Tzadik, TZ 7265 (2008) Haino Keiji: electric and acoustic guitar, flute, vocal Yoshida Tatsuya: drums, keyboards, bass, vocal.

Слушайте Keiji Haino, Yoshida Tatsuya и скачивайте бесплатно в формате mp3 прямо сейчас, без кодов, смс и регистрации.

1. Ryufoispjekkossd (5:41) 2. Dhoidvophkjiff (2:46) 3. Ruhndfhiooak (3:22) 4. Gheuebhessip (2:52) 5. Fsjoppofgu (2:22) 6. Utygghjgpoidpswb (2:06) 7. Lokskooidgiif (3:42) 8. Cchjdisoiugpodf (3:49) 9. Ddjbifpgorkh (1:56) 10.

Keiji Haino (灰野 敬二 Haino Keiji; born May 3, 1952) is a Japanese musician and singer-songwriter whose work has included rock, free improvisation, noise music, percussion, psychedelic music, minimalism and drone music. He has been active since the 1970s and continues to record regularly and in new styles. Haino's initial artistic outlet was theatre, inspired by the radical writings of Antonin Artaud.

Uhrfasudhasdd" is an interesting and diverse look into the dark underbelly of Japanese avant-garde musical expressionism. The purveyors of this lot, Haino Keiji and Yoshida Tatsuya, remind me a lot of John Cage at the creative inflection point that resulted in the creation of "HPSCHD", only with less emphasis on melody.

TITLE "Hauenfiomiume" PERFORMER "Haino Keiji & Yoshida Tatsuya" REM GENRE "Japanese" REM DATE 2008 FILE "CDImage. wav" WAVE TRACK 01 AUDIO TITLE "Yeudhujiuasich" INDEX 01 00:00:00 TRACK 02 AUDIO TITLE "Ryufoispjekkossd" INDEX 00 01:27:04 INDEX 01 01:29:04 TRACK 03 AUDIO TITLE "Wacqdhiepdhii" INDEX 00 07:07:05 INDEX 01 07:09:06 TRACK 04 AUDIO TITLE "Vjndoiphllkaudo" INDEX. 34:49:52 TRACK 13 AUDIO TITLE "Hgasdeyohweijk" INDEX 00 37:59:30 INDEX 01 38:01:30 TRACK 14 AUDIO TITLE "Chizdaafgeiiuuh" INDEX 00 41:23:47 INDEX 01 41:25:47 TRACK 15 AUDIO TITLE "Mkdoijadihffo" INDEX 00 43:56:64 INDEX 01 43:58:64 TRACK 16 AUDIO TITLE "Uhrfasudhasdd" INDEX 00 48:33:69 INDEX 01 48:35:69.

Haino Keiji & Yoshida Tatsuya - Until Water Grasps Flame 水が炎を掴むまで ‎(CD, Album). Noise Asia, Sonic Factory. Keiji Haino, Mitsuru Nasuno, Tatsuya Yoshida + Bus Ratch - Live At Cafe Independants Friday 2. anuary.

Listen to music from Keiji Haino & Tatsuya Yoshida like Avenue D, Houston Street & more. Find the latest tracks, albums, and images from Keiji Haino & Tatsuya Yoshida. Yoshida Tatsuya (吉田達也) is the drummer and only consistent member of the renowned Japanese progressive rock duo Ruins. He is cited as the indisputable master drummer of the Japanese underground, and a rhythm section gone ballistic.

album Weekly Top. album Pop Hotlist. Keiji Haino & Tatsuya Yoshida - Lower East Side. Keiji Haino & Tatsuya Yoshida - Uhrfasudhasdd. Haino Keiji, Yoshida Tatsuya - Fiuijkdfgpokwom (2007). Keiji Haino & Tatsuya Yoshida - Ryufoispjekkossd. Haino Keiji, Yoshida Tatsuya - Mkdoijadihffo (2008). Merzbow, Keiji Haino & Tatsuya Yoshida play at Super Deluxe in Tokyo, Japan. Keiji Haino & Tatsuya Yoshida - Chizdaafgeiiuuh. Thurston Moore playing trio w Keiji Haino + Tatsuya Yoshida. Keiji Haino & Tatsuya d-Music. tatsuya yoshida (lost clips b). Extract Chords.

Comments (1)

Bumand
Total chaos. Those two words are what make up Uhrfasudhasdd. Awesome jazz that turns into an instrumental free-for-all. Haino shreds the guitar while Tatsuya lays the sick beats and bass. And then all of a sudden the beats get chopped, distorted, twisted, and everything changes. Such a bizzare, interesting album. Part jazz, part prog, part noise rock. It's a really exciting and energetic album. Filled with everything you can think of. It's like packing a circus into a guitar and drumset.

Related to Haino Keiji / Yoshida Tatsuya - Uhrfasudhasdd: